Los ilusionistas: Nada es lo que Parece BDRip 720p Ingles AC3 5.1+DTS Sub Esp [2013]



[i]Ficha Técnica

Titulo Original : Now You See Me
Nada es lo que parece / Los ilusionistas: Nada es lo que Parece
Año 2013
Duración 115 min.
País Estados Unidos
Director Louis Leterrier
Guión Boaz Yakin, Edward Ricourt, Ed Solomon (Historia: Boaz Yakin, Edward Ricourt)
Música Brian Tyler
Fotografía Larry Fong, Mitchell Amundsen
Reparto
Jesse Eisenberg, Dave Franco, Morgan Freeman, Mark Ruffalo, Isla Fisher, Mélanie Laurent, Woody Harrelson
Michael Caine, Common, Michael Kelly, José Garcia, David Warshofsky, Jessica Lindsey, Caitriona Balfe,
Productora Summit Entertainment / Kurtzman Orci Paper Products / See Me Louisiana
Género Thriller | Magia. Robos & Atracos

Sinopsis
Un equipo del FBI debe enfrentarse a una banda de criminales expertos en magia que se dedican a atracar bancos. Son "los cuatro jinetes", un grupo formado por los mejores ilusionistas del mundo. Durante los atracos, dirigidos siempre contra hombres de negocios corruptos, hacen llover el dinero robado sobre los espectadores, ante la atónita mirada de un equipo de élite del FBI que les sigue la pista. (FILMAFFINITY)

Datos Técnicos


Código:
General
Format : Matroska
Format version : Version 2
File size : 6.02 GiB
Duration : 2h 4mn
Overall bit rate : 6 903 Kbps
Movie name : CadagotoHD
Encoded date : UTC 2013-08-22 01:38:26
Writing application : mkvmerge v3.4.0 ('Rapunzel') built on May 15 2010 09:38:20
Writing library : libebml v0.8.0 + libmatroska v0.9.0

Video
ID : 1
Format : AVC
Format/Info : Advanced Video Codec
Format profile : High@L4.1
Format settings, CABAC : Yes
Format settings, ReFrames : 5 frames
Codec ID : V_MPEG4/ISO/AVC
Duration : 2h 4mn
Bit rate : 4 755 Kbps
Width : 1 280 pixels
Height : 536 pixels
Display aspect ratio : 2.40:1
Frame rate mode : Constant
Frame rate : 23.976 fps
Color space : YUV
Chroma subsampling : 4:2:0
Bit depth : 8 bits
Scan type : Progressive
Bits/(Pixel*Frame) : 0.289
Stream size : 4.02 GiB (67%)
Title : CadagotoHD
Writing library : x264 core 133 r2334 a3ac64b
Encoding settings : cabac=1 / ref=5 / deblock=1:0:0 / analyse=0x3:0x133 / me=umh / subme=7 / psy=1 / psy_rd=1.00:0.00 / mixed_ref=1 / me_range=16 / chroma_me=1 / trellis=1 / 8x8dct=1 / cqm=0 / deadzone=21,11 / fast_pskip=0 / chroma_qp_offset=-2 / threads=18 / lookahead_threads=3 / sliced_threads=0 / nr=0 / decimate=1 / interlaced=0 / bluray_compat=0 / constrained_intra=0 / bframes=3 / b_pyramid=2 / b_adapt=1 / b_bias=0 / direct=1 / weightb=1 / open_gop=0 / weightp=2 / keyint=250 / keyint_min=23 / scenecut=40 / intra_refresh=0 / rc_lookahead=40 / rc=2pass / mbtree=1 / bitrate=4755 / ratetol=1.0 / qcomp=0.60 / qpmin=0 / qpmax=69 / qpstep=4 / cplxblur=20.0 / qblur=0.5 / ip_ratio=1.40 / aq=1:1.00
Language : English
Default : No
Forced : No

Audio #1
ID : 2
Format : AC-3
Format/Info : Audio Coding 3
Mode extension : CM (complete main)
Format settings, Endianness : Big
Codec ID : A_AC3
Duration : 2h 4mn
Bit rate mode : Constant
Bit rate : 640 Kbps
Channel count : 6 channels
Channel positions : Front: L C R, Side: L R, LFE
Sampling rate : 48.0 KHz
Bit depth : 16 bits
Compression mode : Lossy
Stream size : 571 MiB (9%)
Title : CadagotoHD - Audio Ingles AC3 5.1 640Kbps
Language : English
Default : No
Forced : No

Audio #2
ID : 3
Format : DTS
Format/Info : Digital Theater Systems
Mode : 16
Format settings, Endianness : Big
Codec ID : A_DTS
Duration : 2h 4mn
Bit rate mode : Constant
Bit rate : 1 509 Kbps
Channel count : 6 channels
Channel positions : Front: L C R, Side: L R, LFE
Sampling rate : 48.0 KHz
Bit depth : 24 bits
Compression mode : Lossy
Delay relative to video : 11ms
Stream size : 1.32 GiB (22%)
Title : CadagotoHD - Audio Ingles DTS 1509Kbps
Language : English
Default : No
Forced : No

Text
ID : 4
Format : UTF-8
Codec ID : S_TEXT/UTF8
Codec ID/Info : UTF-8 Plain Text
Title : CadagotoHD - Subtitulos Español Latino
Language : Spanish
Default : Yes
Forced : Yes

Menu
00:00:00.000 : en:00:00:00.000
00:08:26.548 : en:00:08:26.548
00:14:41.923 : en:00:14:41.923
00:21:25.868 : en:00:21:25.868
00:32:02.003 : en:00:32:02.003
00:39:29.158 : en:00:39:29.158
00:47:07.199 : en:00:47:07.199
00:56:43.441 : en:00:56:43.441
01:04:35.371 : en:01:04:35.371
01:10:23.135 : en:01:10:23.135
01:20:04.549 : en:01:20:04.549
01:29:01.002 : en:01:29:01.002
01:35:22.883 : en:01:35:22.883
01:44:06.281 : en:01:44:06.281
01:45:47.507 : en:01:45:47.507
01:54:24.607 : en:01:54:24.607










[IMG]http://uppix.net/CKmbnH.png/IMG]















Descargar Enlaces De FreakShare AQUI







Utiliza los Archivos .REV si tienes problema con 1,2,3 archivos en su descarga , Esté off o corruptos

Si necesitas 2 archivos , Bajas 2 REV y los reconstruirán Cualquiera que fuesen los que te falten !

id: 3745196ef3e6 38ce2a8d566e 268b4512 920695650